DNS SERVER ÄNDERN, um der staatlichen Zensur zu umgehen. Sollten wir von eurem Provider gesperrt werden, nutzt den TOR BROWSER oder ändert euren DNS SERVER.

Filmwünsche können bei uns im Forum abgegeben werden

Wir Speichern Nicht




 
 
 
Top Releases
Forever.My.Girl.2018.DUAL.CO...
Forever.My.Girl.German.DL.10...
Forever.My.Girl.German.720p....
LBJ.2016.German.AC3.DL.1080p...
American.Animals.2018.German...
Alpha.2018.German.AC3.DL.108...
Das.Haus.der.geheimnisvollen...
Es.war.einmal.ein.Deadpool.2...
Book.Club.Das.Beste.kommt.no...
Searching.2018.German.DL.AC3...

Cinedubs
Der.Nussknacker.und.die.vier...
Dont.Worry.weglaufen.geht.ni...
Dont.Worry.weglaufen.geht.ni...
Gaensehaut.2.Gruseliges.Hall...
Aquaman.TS.LD.German.DL.720p...
Eho.Echo.German.720p.WEBRip....
Eho.Echo.German.1080p.WEBRip...
Bad.Times.at.the.El.Royale.2...
Bad.Spies.2018.German.DL.AC3...
Aquaman.2018.GERMAN.AC3.MD.7...

Neuerscheinungen 2018-19
The.Domestics.German.DL.1080...
The.Domestics.German.720p.Bl...
IO.2019.German.DL.1080p.WEB....
IO.2019.German.DL.720p.WEBRi...
Keepers.Die.Leuchtturmwaerte...
Solo.2018.German.Dubbed.AC3....
Grosse.Haie.Kleine.Fische.20...
Keepers.Die.Leuchtturmwaerte...
Keepers.Die.Leuchtturmwaerte...
The.Highway.Rat.2017.German....

XXX
MyLifeInMiami.19.01.09.Vina....
FacialsForever.19.01.07.Layl...
BuccWild.18.04.28.Ebony.Show...
JulesJordan.19.01.09.Paige.O...
Lubed.19.01.09.Sophia.Lux.Gl...
FTVGirls.19.01.09.Scarlet.Ba...
RKPrime.19.01.09.Lela.Star.S...
NothingButCurves.19.01.11.Li...
DigitalPlayground.19.01.12.J...
StepSiblings.19.01.12.Kinsle...
MomPov.E443.Davina.XXX.1080p...
MetArtX.19.01.10.Hayli.Sande...
TeenFidelity.E350.Brooklyn.B...
BuccWild.18.04.19.Creamy.Pus...
FinishHim.19.01.09.Dava.Foxx...
WankItNow.19.01.09.Lucy.Rose...
HandsOnHardcore.19.01.12.Zar...
AllOver30.19.01.10.Veronica....
FiLFExtra.E42.Alex.Tanner.Te...
MatureNL.19.01.11.Karry.Slot...

3D
Blade.Runner.2049.3D.2017.Ge...
Walhalla.Rising.3D.2009.DUAL...
Sleepwalker.3D.2011.DUAL.COM...
Bis.an.die.Grenzen.des.Unive...
Best.of.3D.vol.13.-.15.GERMA...
Limbradur.und.die.Magie.der....
Kaluoka.Hina.Das.Zauberriff....
Limbradur.und.die.Magie.der....
Smallfoot.3D.2018.COMPLETE.B...
Smallfoot.Ein.eisigartiges.A...
Skyscraper.3D.2018.German.DL...
Meg.3D.2018.MULTi.COMPLETE.B...
Meg.3D.2018.German.DL.1080p....
Gans.im.Glueck.3D.2018.MULTi...
The.Art.of.Flight.3D.2011.Ge...

Old_Stuff
Todfreunde.aka.Bad.Influence...
Animatrix.2003.German.DL.108...
Animatrix.2003.German.DL.720...
Akte.X.S06.German.DTS.DL.108...
The.Beauty.of.Gemina.Minor.S...
ZZ.Top.Live.from.Texas.2008....
Peter.Hase.2018.German.DL.10...
Akte.X.S05.German.DTS.DL.108...
Akte.X.S04.German.DTS.DL.108...
Akte.X.S03.German.DTS.DL.108...
Dunkirk.1958.COMPLETE.BLURAY...
Das.Wunder.von.Manhattan.199...
The.Amazing.Spiderman.2.Rise...
Rise.of.the.Predator.2014.Ge...
Detective.Dee.und.das.Geheim...

Filme
Escape.at.Dannemora.S01.COMP...
Escape.at.Dannemora.S01.COMP...
Auf.der.Jagd.-.Wem.gehoert.d...
Auf.der.Jagd.-.Wem.gehoert.d...
Terra.X.Expedition.Europa.-....
Batman.v.Superman.Dawn.of.Ju...
The.Doors.1991.German.AC3.ML...
Turmfalken.Unsichtbare.Nachb...
Der.Todesflug.der.IL.62.GERM...
Fruehstueck.bei.Monsieur.Hen...
Marvels.The.Punisher.S02.COM...
Marvels.The.Punisher.S02.COM...
Ein.verlockendes.Spiel.2008....
Star.Trek.Discovery.S02.Germ...
Star.Trek.Discovery.S02.Germ...
American.Horror.Story.S08.CO...
American.Horror.Story.S08.CO...
Vikings.S05.GERMAN.1080p.Web...
Vikings.S05.GERMAN.720p.WebH...
The.100.S05.GERMAN.DUBBED.DL...
The.Beach.2000.UNCUT.German....
Tropenparadies.Bali.Eine.Per...
Videospiele.Die.neuen.Blockb...
The.Highway.Rat.2017.Hinter....

 
 
The.100.S05.GERMAN.DUBBED.720p.BLURAY.x264-ZZGtv

Jahr: 2018
Genre: Drama | Mystery | Sci-Fi
Sprache: Deutsch AC3
Laufzeit: 40min je Folge
Bitrate: 5800 Kbps
Format: MKV
Größe: 1,8 GB je Folge
Release:

Beschreibung:

Die Science-Fiction-Serie The 100 basiert auf einer Buchreihe von Kass Morgan und spielt im Jahr 3010 - 97 Jahre nachdem ein Atomkrieg nahezu jegliches Leben auf der Erde ausgelöscht hat. Die unbewohnbare Erdoberfläche wurde aufgegeben, die letzten Überlebenden der Menschheit befinden sich an Bord des Raumschiffs/der Orbitalstation The Ark.

Unter dem Druck schwindender Ressourcen werden 100 aufrührerische oder kriminell gewordene Jugendliche zur Erde entsandt - unter Einsatz ihres Lebens sollen sie herausfinden, ob die Möglichkeit besteht, den Planeten in naher Zukunft wieder zu besiedeln. Daneben dürften in der Serie aber auch Intrigen an Bord der Ark behandelt werden.

 

enthaltene Folgen:

The.100.S05E01.Eden.GERMAN.DUBBED.PROPER.720p.BLURAY.x264-ZZGtv 

The.100.S05E02.Die.rote.Koenigin.GERMAN.DUBBED.720p.BLURAY.x264-ZZGtv

The.100.S05E03.Schlafende.Riesen.GERMAN.DUBBED.720p.BLURAY.x264-ZZGtv 

The.100.S05E04.Die.Buechse.der.Pandora.GERMAN.DUBBED.720p.BLURAY.x264-ZZGtv

The.100.S05E05.Toedlicher.Sand.GERMAN.DUBBED.720p.BLURAY.x264-ZZGtv NEU

The.100.S05E06.Rebellion.GERMAN.DUBBED.720p.BLURAY.x264-ZZGtv NEU



General
Complete name                            : The.100.S05E01.Eden.GERMAN.DUBBED.PROPER.720p.BLURAY.x264-ZZGtv\zzgtv-teh100-s05e01.mkv
Format                                   : Matroska
Format version                           : Version 1
File size                                : 1.78 GiB
Duration                                 : 40mn 39s
Overall bit rate                         : 6 251 Kbps
Encoded date                             : UTC 2019-01-03 20:12:08
Writing application                      : mkvmerge v2.2.0 ('Turn It On Again') built on Mar  4 2008 12:58:26
Writing library                          : libebml v0.7.7 + libmatroska v0.8.1

Video
ID                                       : 1
Format                                   : AVC
Format/Info                              : Advanced Video Codec
Format profile                           : [email protected]
Format settings, CABAC                   : Yes
Format settings, ReFrames                : 5 frames
Codec ID                                 : V_MPEG4/ISO/AVC
Duration                                 : 40mn 39s
Bit rate                                 : 5 809 Kbps
Width                                    : 1 280 pixels
Height                                   : 720 pixels
Display aspect ratio                     : 16:9
Frame rate mode                          : Constant
Frame rate                               : 25.000 fps
Original frame rate                      : 23.976 fps
Color space                              : YUV
Chroma subsampling                       : 4:2:0
Bit depth                                : 8 bits
Scan type                                : Progressive
Bits/(Pixel*Frame)                       : 0.252
Stream size                              : 1.69 GiB (95%)
Writing library                          : x264 core 155 r2901 7d0ff22
Encoding settings                        : cabac=1 / ref=5 / deblock=1:0:0 / analyse=0x3:0x133 / me=umh / subme=8 / psy=1 / psy_rd=1.00:0.00 / mixed_ref=1 / me_range=16 / chroma_me=1 / trellis=1 / 8x8dct=1 / cqm=0 / deadzone=21,11 / fast_pskip=0 / chroma_qp_offset=-2 / threads=12 / lookahead_threads=2 / sliced_threads=0 / nr=0 / decimate=1 / interlaced=0 / bluray_compat=0 / constrained_intra=0 / bframes=3 / b_pyramid=2 / b_adapt=1 / b_bias=0 / direct=1 / weightb=1 / open_gop=0 / weightp=2 / keyint=250 / keyint_min=23 / scenecut=40 / intra_refresh=0 / rc_lookahead=40 / rc=2pass / mbtree=1 / bitrate=5809 / ratetol=1.0 / qcomp=0.60 / qpmin=0 / qpmax=69 / qpstep=4 / cplxblur=20.0 / qblur=0.5 / ip_ratio=1.40 / aq=1:1.00
Default                                  : Yes
Forced                                   : No

Audio
ID                                       : 2
Format                                   : AC-3
Format/Info                              : Audio Coding 3
Mode extension                           : CM (complete main)
Format settings, Endianness              : Big
Codec ID                                 : A_AC3
Duration                                 : 40mn 39s
Bit rate mode                            : Constant
Bit rate                                 : 192 Kbps
Channel(s)                               : 2 channels
Channel positions                        : Front: L R
Sampling rate                            : 48.0 KHz
Bit depth                                : 16 bits
Compression mode                         : Lossy
Stream size                              : 55.8 MiB (3%)
Default                                  : Yes
Forced                                   : No



Download:
Share-Online.biz Share-Online.bizShare-Online.bizShare-Online.biz | Rapidgator.net Rapidgator.netRapidgator.netRapidgator.net
 

Kommentare