DNS SERVER ÄNDERN, um der staatlichen Zensur zu umgehen. Sollten wir von eurem Provider gesperrt werden, nutzt den TOR BROWSER oder ändert euren DNS SERVER.

Filmwünsche können bei uns im Forum abgegeben werden

Wir Speichern Nicht




 
 
 
Top Releases
Durch.die.Wand.The.Dawn.Wall...
Forever.My.Girl.2018.DUAL.CO...
Forever.My.Girl.German.DL.10...
Forever.My.Girl.German.720p....
LBJ.2016.German.AC3.DL.1080p...
American.Animals.2018.German...
Alpha.2018.German.AC3.DL.108...
Das.Haus.der.geheimnisvollen...
Es.war.einmal.ein.Deadpool.2...
Book.Club.Das.Beste.kommt.no...

Cinedubs
Der.Nussknacker.und.die.vier...
Dont.Worry.weglaufen.geht.ni...
Dont.Worry.weglaufen.geht.ni...
Gaensehaut.2.Gruseliges.Hall...
Aquaman.TS.LD.German.DL.720p...
Eho.Echo.German.720p.WEBRip....
Eho.Echo.German.1080p.WEBRip...
Bad.Times.at.the.El.Royale.2...
Bad.Spies.2018.German.DL.AC3...
Aquaman.2018.GERMAN.AC3.MD.7...

Neuerscheinungen 2018-19
The.Domestics.German.DL.1080...
The.Domestics.German.720p.Bl...
IO.2019.German.DL.1080p.WEB....
IO.2019.German.DL.720p.WEBRi...
Keepers.Die.Leuchtturmwaerte...
Solo.2018.German.Dubbed.AC3....
Grosse.Haie.Kleine.Fische.20...
Keepers.Die.Leuchtturmwaerte...
Keepers.Die.Leuchtturmwaerte...
The.Highway.Rat.2017.German....

XXX
BuccWild.18.04.18.Becky.Bucc...
WakeUpNFuck.E269.Sarah.Cute....
ErotiqueTVLive.18.07.04.Juli...
FatManFuck.19.01.06.Lexus.Jo...
MyLifeInMiami.19.01.09.Vina....
FacialsForever.19.01.07.Layl...
BuccWild.18.04.28.Ebony.Show...
JulesJordan.19.01.09.Paige.O...
Lubed.19.01.09.Sophia.Lux.Gl...
FTVGirls.19.01.09.Scarlet.Ba...
RKPrime.19.01.09.Lela.Star.S...
NothingButCurves.19.01.11.Li...
DigitalPlayground.19.01.12.J...
StepSiblings.19.01.12.Kinsle...
MomPov.E443.Davina.XXX.1080p...
MetArtX.19.01.10.Hayli.Sande...
TeenFidelity.E350.Brooklyn.B...
BuccWild.18.04.19.Creamy.Pus...
FinishHim.19.01.09.Dava.Foxx...
WankItNow.19.01.09.Lucy.Rose...

3D
Blade.Runner.2049.3D.2017.Ge...
Walhalla.Rising.3D.2009.DUAL...
Sleepwalker.3D.2011.DUAL.COM...
Bis.an.die.Grenzen.des.Unive...
Best.of.3D.vol.13.-.15.GERMA...
Limbradur.und.die.Magie.der....
Kaluoka.Hina.Das.Zauberriff....
Limbradur.und.die.Magie.der....
Smallfoot.3D.2018.COMPLETE.B...
Smallfoot.Ein.eisigartiges.A...
Skyscraper.3D.2018.German.DL...
Meg.3D.2018.MULTi.COMPLETE.B...
Meg.3D.2018.German.DL.1080p....
Gans.im.Glueck.3D.2018.MULTi...
The.Art.of.Flight.3D.2011.Ge...

Old_Stuff
Todfreunde.aka.Bad.Influence...
Animatrix.2003.German.DL.108...
Animatrix.2003.German.DL.720...
Akte.X.S06.German.DTS.DL.108...
The.Beauty.of.Gemina.Minor.S...
ZZ.Top.Live.from.Texas.2008....
Peter.Hase.2018.German.DL.10...
Akte.X.S05.German.DTS.DL.108...
Akte.X.S04.German.DTS.DL.108...
Akte.X.S03.German.DTS.DL.108...
Dunkirk.1958.COMPLETE.BLURAY...
Das.Wunder.von.Manhattan.199...
The.Amazing.Spiderman.2.Rise...
Rise.of.the.Predator.2014.Ge...
Detective.Dee.und.das.Geheim...

Filme
Escape.at.Dannemora.S01.COMP...
Escape.at.Dannemora.S01.COMP...
Auf.der.Jagd.-.Wem.gehoert.d...
Auf.der.Jagd.-.Wem.gehoert.d...
Terra.X.Expedition.Europa.-....
Batman.v.Superman.Dawn.of.Ju...
The.Doors.1991.German.AC3.ML...
Turmfalken.Unsichtbare.Nachb...
Der.Todesflug.der.IL.62.GERM...
Fruehstueck.bei.Monsieur.Hen...
Marvels.The.Punisher.S02.COM...
Marvels.The.Punisher.S02.COM...
Ein.verlockendes.Spiel.2008....
Star.Trek.Discovery.S02.Germ...
Star.Trek.Discovery.S02.Germ...
American.Horror.Story.S08.CO...
American.Horror.Story.S08.CO...
Vikings.S05.GERMAN.1080p.Web...
Vikings.S05.GERMAN.720p.WebH...
The.100.S05.GERMAN.DUBBED.DL...
The.Beach.2000.UNCUT.German....
Tropenparadies.Bali.Eine.Per...
Videospiele.Die.neuen.Blockb...
The.Highway.Rat.2017.Hinter....

 
 
American.Violet.2008.German.DL.1080p.BluRay.x264.iNTERNAL-EXPS

Jahr: 2008
Genre: Drama
Sprache: Deutsch DTS | Englisch DTS
Laufzeit: 1h 43mn
Bitrate: 10.6 Mbps
Format: MKV
Größe: 7.65 GiB
Release:

Beschreibung:

Dee Roberts hat es nicht leicht, ihre dreiköpfige Kinderschar als Diner-Bedienung durchzubringen. Zumal ihr der gewalttätige Ex im Nacken sitzt und sich nicht mit dem Sorgerecht zu ihren Gunsten abfinden will. Als Dee eines Tages bei einer Routinerazzia verhaftet wird, denkt sie sich zunächst nichts Böses, denn schließlich hat sie auch nichts Böses getan. Der (Sammel-)Vorwurf aber lautet auf Drogenhandel, einen Verteidiger kann sich Dee nicht leisten, und ein Kuhhandel (Freilassung gegen Bewährung) brächte sie um ihr Sorgerecht.



Complete name                            : exps-americanviolet-1080p.mkv
Format                                   : Matroska
Format version                           : Version 4 / Version 2
File size                                : 7.65 GiB
Duration                                 : 1h 43mn
Overall bit rate                         : 10.6 Mbps
Encoded date                             : UTC 2019-01-07 16:16:03
Writing application                      : mkvmerge v9.0.1 ('Obstacles') 64bit
Writing library                          : libebml v1.3.3 + libmatroska v1.4.4
DURATION                                 : 01:43:00.214000000
NUMBER_OF_FRAMES                         : 579395
NUMBER_OF_BYTES                          : 593300480
_STATISTICS_WRITING_APP                  : mkvmerge v9.0.1 ('Obstacles') 64bit
_STATISTICS_WRITING_DATE_UTC             : 2019-01-07 16:16:03
_STATISTICS_TAGS                         : BPS DURATION NUMBER_OF_FRAMES NUMBER_OF_BYTES

Video
ID                                       : 1
Format                                   : AVC
Format/Info                              : Advanced Video Codec
Format profile                           : [email protected]
Format settings, CABAC                   : Yes
Format settings, ReFrames                : 4 frames
Codec ID                                 : V_MPEG4/ISO/AVC
Duration                                 : 1h 43mn
Bit rate                                 : 9 098 Kbps
Width                                    : 1 920 pixels
Height                                   : 1 080 pixels
Display aspect ratio                     : 16:9
Frame rate mode                          : Constant
Frame rate                               : 23.976 fps
Color space                              : YUV
Chroma subsampling                       : 4:2:0
Bit depth                                : 8 bits
Scan type                                : Progressive
Bits/(Pixel*Frame)                       : 0.183
Stream size                              : 6.39 GiB (84%)
Writing library                          : x264 core 157 r2935 545de2f
Encoding settings                        : cabac=1 / ref=4 / deblock=1:-1:-1 / analyse=0x3:0x113 / me=umh / subme=7 / psy=1 / psy_rd=1.00:0.00 / mixed_ref=1 / me_range=16 / chroma_me=1 / trellis=1 / 8x8dct=1 / cqm=0 / deadzone=21,11 / fast_pskip=0 / chroma_qp_offset=-2 / threads=12 / lookahead_threads=2 / sliced_threads=0 / nr=0 / decimate=1 / interlaced=0 / bluray_compat=0 / constrained_intra=0 / bframes=3 / b_pyramid=2 / b_adapt=1 / b_bias=0 / direct=3 / weightb=1 / open_gop=0 / weightp=2 / keyint=250 / keyint_min=23 / scenecut=40 / intra_refresh=0 / rc_lookahead=40 / rc=2pass / mbtree=1 / bitrate=9098 / ratetol=1.0 / qcomp=0.60 / qpmin=0 / qpmax=69 / qpstep=4 / cplxblur=20.0 / qblur=0.5 / ip_ratio=1.40 / aq=1:1.00
Default                                  : Yes
Forced                                   : No

Audio #1
ID                                       : 2
Format                                   : DTS
Format/Info                              : Digital Theater Systems
Mode                                     : 16
Format settings, Endianness              : Big
Codec ID                                 : A_DTS
Duration                                 : 1h 43mn
Bit rate mode                            : Constant
Bit rate                                 : 768 Kbps
Channel(s)                               : 2 channels
Channel positions                        : Front: L R
Sampling rate                            : 48.0 KHz
Bit depth                                : 24 bits
Compression mode                         : Lossy
Stream size                              : 566 MiB (7%)
Language                                 : German
Default                                  : Yes
Forced                                   : No

Audio #2
ID                                       : 3
Format                                   : DTS
Format/Info                              : Digital Theater Systems
Mode                                     : 16
Format settings, Endianness              : Big
Codec ID                                 : A_DTS
Duration                                 : 1h 43mn
Bit rate mode                            : Constant
Bit rate                                 : 768 Kbps
Channel(s)                               : 2 channels
Channel positions                        : Front: L R
Sampling rate                            : 48.0 KHz
Bit depth                                : 24 bits
Compression mode                         : Lossy
Stream size                              : 566 MiB (7%)
Language                                 : English
Default                                  : No
Forced                                   : No


Download:
Share Online Share OnlineShare OnlineShare Online
 

Kommentare