DNS SERVER ÄNDERN, um der staatlichen Zensur zu umgehen. Sollten wir von eurem Provider gesperrt werden, nutzt den TOR BROWSER oder ändert euren DNS SERVER.

Filmwünsche können bei uns im Forum abgegeben werden

Wir Speichern Nicht




 
 
 
Top Releases
Forever.My.Girl.2018.DUAL.CO...
Forever.My.Girl.German.DL.10...
Forever.My.Girl.German.720p....
LBJ.2016.German.AC3.DL.1080p...
American.Animals.2018.German...
Alpha.2018.German.AC3.DL.108...
Das.Haus.der.geheimnisvollen...
Es.war.einmal.ein.Deadpool.2...
Book.Club.Das.Beste.kommt.no...
Searching.2018.German.DL.AC3...

Cinedubs
Der.Nussknacker.und.die.vier...
Dont.Worry.weglaufen.geht.ni...
Dont.Worry.weglaufen.geht.ni...
Gaensehaut.2.Gruseliges.Hall...
Aquaman.TS.LD.German.DL.720p...
Eho.Echo.German.720p.WEBRip....
Eho.Echo.German.1080p.WEBRip...
Bad.Times.at.the.El.Royale.2...
Bad.Spies.2018.German.DL.AC3...
Aquaman.2018.GERMAN.AC3.MD.7...

Neuerscheinungen 2018-19
The.Domestics.German.DL.1080...
The.Domestics.German.720p.Bl...
IO.2019.German.DL.1080p.WEB....
IO.2019.German.DL.720p.WEBRi...
Keepers.Die.Leuchtturmwaerte...
Solo.2018.German.Dubbed.AC3....
Grosse.Haie.Kleine.Fische.20...
Keepers.Die.Leuchtturmwaerte...
Keepers.Die.Leuchtturmwaerte...
The.Highway.Rat.2017.German....

XXX
MyLifeInMiami.19.01.09.Vina....
FacialsForever.19.01.07.Layl...
BuccWild.18.04.28.Ebony.Show...
JulesJordan.19.01.09.Paige.O...
Lubed.19.01.09.Sophia.Lux.Gl...
FTVGirls.19.01.09.Scarlet.Ba...
RKPrime.19.01.09.Lela.Star.S...
NothingButCurves.19.01.11.Li...
DigitalPlayground.19.01.12.J...
StepSiblings.19.01.12.Kinsle...
MomPov.E443.Davina.XXX.1080p...
MetArtX.19.01.10.Hayli.Sande...
TeenFidelity.E350.Brooklyn.B...
BuccWild.18.04.19.Creamy.Pus...
FinishHim.19.01.09.Dava.Foxx...
WankItNow.19.01.09.Lucy.Rose...
HandsOnHardcore.19.01.12.Zar...
AllOver30.19.01.10.Veronica....
FiLFExtra.E42.Alex.Tanner.Te...
MatureNL.19.01.11.Karry.Slot...

3D
Blade.Runner.2049.3D.2017.Ge...
Walhalla.Rising.3D.2009.DUAL...
Sleepwalker.3D.2011.DUAL.COM...
Bis.an.die.Grenzen.des.Unive...
Best.of.3D.vol.13.-.15.GERMA...
Limbradur.und.die.Magie.der....
Kaluoka.Hina.Das.Zauberriff....
Limbradur.und.die.Magie.der....
Smallfoot.3D.2018.COMPLETE.B...
Smallfoot.Ein.eisigartiges.A...
Skyscraper.3D.2018.German.DL...
Meg.3D.2018.MULTi.COMPLETE.B...
Meg.3D.2018.German.DL.1080p....
Gans.im.Glueck.3D.2018.MULTi...
The.Art.of.Flight.3D.2011.Ge...

Old_Stuff
Todfreunde.aka.Bad.Influence...
Animatrix.2003.German.DL.108...
Animatrix.2003.German.DL.720...
Akte.X.S06.German.DTS.DL.108...
The.Beauty.of.Gemina.Minor.S...
ZZ.Top.Live.from.Texas.2008....
Peter.Hase.2018.German.DL.10...
Akte.X.S05.German.DTS.DL.108...
Akte.X.S04.German.DTS.DL.108...
Akte.X.S03.German.DTS.DL.108...
Dunkirk.1958.COMPLETE.BLURAY...
Das.Wunder.von.Manhattan.199...
The.Amazing.Spiderman.2.Rise...
Rise.of.the.Predator.2014.Ge...
Detective.Dee.und.das.Geheim...

Filme
Escape.at.Dannemora.S01.COMP...
Escape.at.Dannemora.S01.COMP...
Auf.der.Jagd.-.Wem.gehoert.d...
Auf.der.Jagd.-.Wem.gehoert.d...
Terra.X.Expedition.Europa.-....
Batman.v.Superman.Dawn.of.Ju...
The.Doors.1991.German.AC3.ML...
Turmfalken.Unsichtbare.Nachb...
Der.Todesflug.der.IL.62.GERM...
Fruehstueck.bei.Monsieur.Hen...
Marvels.The.Punisher.S02.COM...
Marvels.The.Punisher.S02.COM...
Ein.verlockendes.Spiel.2008....
Star.Trek.Discovery.S02.Germ...
Star.Trek.Discovery.S02.Germ...
American.Horror.Story.S08.CO...
American.Horror.Story.S08.CO...
Vikings.S05.GERMAN.1080p.Web...
Vikings.S05.GERMAN.720p.WebH...
The.100.S05.GERMAN.DUBBED.DL...
The.Beach.2000.UNCUT.German....
Tropenparadies.Bali.Eine.Per...
Videospiele.Die.neuen.Blockb...
The.Highway.Rat.2017.Hinter....

 
 
The.Romanoffs.S01.COMPLETE.GERMAN.DL.1080p.WEB.H264-FENDT

Jahr: 2018
Genre: Drama
Sprache: Deutsch EAC3 | Englisch EAC3
Laufzeit: 1h je Folge
Bitrate: 8400 Kbps
Format: MKV
Größe: 6 GB je Folge
Release:

Beschreibung:

Anthologie-Serie, bei der in jeder Episode andere Figuren im Mittelpunkt stehen, die allerdings eines eint: Sie alle sind der festen Überzeugung, Nachkommen der russischen Zaren-Familie Romanow zu sein. Zur namhaften Besetzung gehören unter anderem Christina Hendricks, John Slattery, Isabelle Huppert, Amanda Peet, Jack Huston und Marthe Keller.



General
Complete name                            : The.Romanoffs.S01E01.GERMAN.DL.1080p.WEB.H264-FENDT.mkv
Format                                   : Matroska
Format version                           : Version 4 / Version 2
File size                                : 5.85 GiB
Duration                                 : 1h 24mn
Overall bit rate                         : 9 897 Kbps
Writing application                      : mkvmerge v30.1.0 ('Forever And More') 64-bit
Writing library                          : libebml v1.3.6 + libmatroska v1.4.9

Video
ID                                       : 1
Format                                   : AVC
Format/Info                              : Advanced Video Codec
Format profile                           : [email protected]
Format settings, CABAC                   : Yes
Format settings, ReFrames                : 4 frames
Codec ID                                 : V_MPEG4/ISO/AVC
Duration                                 : 1h 24mn
Bit rate                                 : 8 420 Kbps
Width                                    : 1 920 pixels
Height                                   : 1 080 pixels
Display aspect ratio                     : 16:9
Frame rate mode                          : Constant
Frame rate                               : 23.976 fps
Color space                              : YUV
Chroma subsampling                       : 4:2:0
Bit depth                                : 8 bits
Scan type                                : Progressive
Bits/(Pixel*Frame)                       : 0.169
Stream size                              : 4.98 GiB (85%)
Default                                  : Yes
Forced                                   : No
Color primaries                          : BT.709
Transfer characteristics                 : BT.709
Matrix coefficients                      : BT.709

Audio #1
ID                                       : 2
Format                                   : E-AC-3
Format/Info                              : Audio Coding 3
Format settings, Endianness              : Big
Codec ID                                 : A_EAC3
Duration                                 : 1h 24mn
Bit rate mode                            : Constant
Bit rate                                 : 640 Kbps
Channel(s)                               : 6 channels
Channel positions                        : Front: L C R, Side: L R, LFE
Sampling rate                            : 48.0 KHz
Compression mode                         : Lossy
Stream size                              : 388 MiB (6%)
Title                                    : Deutsch
Language                                 : German
Default                                  : Yes
Forced                                   : No

Audio #2
ID                                       : 3
Format                                   : E-AC-3
Format/Info                              : Audio Coding 3
Format settings, Endianness              : Big
Codec ID                                 : A_EAC3
Duration                                 : 1h 24mn
Bit rate mode                            : Constant
Bit rate                                 : 640 Kbps
Channel(s)                               : 6 channels
Channel positions                        : Front: L C R, Side: L R, LFE
Sampling rate                            : 48.0 KHz
Compression mode                         : Lossy
Stream size                              : 388 MiB (6%)
Title                                    : English
Language                                 : English
Default                                  : No
Forced                                   : No

Text #1
ID                                       : 4
Format                                   : UTF-8
Codec ID                                 : S_TEXT/UTF8
Codec ID/Info                            : UTF-8 Plain Text
Title                                    : Deutsch
Language                                 : German
Default                                  : No
Forced                                   : No

Text #2
ID                                       : 5
Format                                   : UTF-8
Codec ID                                 : S_TEXT/UTF8
Codec ID/Info                            : UTF-8 Plain Text
Title                                    : English
Language                                 : English
Default                                  : No
Forced                                   : No



Download:
Share-Online.biz Share-Online.bizShare-Online.bizShare-Online.biz | Rapidgator.net Rapidgator.netRapidgator.netRapidgator.net
 

Kommentare